#TITLE:MONSTER;
#SUBTITLE:Expi3nze;
#ARTIST:BIGBANG;
#TITLETRANSLIT:;
#SUBTITLETRANSLIT:;
#ARTISTTRANSLIT:;
#CREDIT:;
#BANNER:bn.png;
#BACKGROUND:bg.png;
#LYRICSPATH:;
#CDTITLE:;
#MUSIC:MONSTER.mp3;
#OFFSET:0.000;
#SAMPLESTART:62.813;
#SAMPLELENGTH:28.594;
#SELECTABLE:YES;
#BPMS:0.000=128.000,6.000=64.000,21.000=32.000,21.250=128.000,21.750=64.000,22.000=128.000,46.000=32.000,48.000=128.000,112.000=64.000,112.333=256.000,113.000=64.000,113.333=256.000,114.000=64.000,114.333=256.000,115.000=128.000,140.000=64.000,140.167=256.000,140.500=64.000,140.667=256.000,141.000=128.000,142.000=64.000,142.167=256.000,142.500=128.000,143.000=256.000,143.500=64.000,143.750=128.000,144.000=64.000,144.333=256.000,145.000=64.000,145.333=256.000,146.000=64.000,146.333=256.000,147.000=128.000,172.000=64.000,172.167=256.000,172.500=128.000,174.000=64.000,174.167=256.000,174.500=128.000,175.000=64.000,191.000=128.000,232.000=64.000,232.333=256.000,233.000=64.000,233.333=256.000,234.000=64.000,234.333=256.000,235.000=128.000,260.000=64.000,260.167=256.000,260.500=64.000,260.667=256.000,261.000=128.000,262.000=64.000,262.167=256.000,262.500=128.000,263.000=256.000,263.500=64.000,263.750=128.000,264.000=64.000,264.333=256.000,265.000=64.000,265.333=256.000,266.000=64.000,266.333=256.000,267.000=128.000,292.000=64.000,292.167=256.000,292.500=128.000,294.000=64.000,294.167=256.000,294.500=128.000;
#STOPS:;
#BGCHANGES:;
// cache tags:
#FIRSTBEAT:6.000;
#LASTBEAT:322.000;
#SONGFILENAME:Songs/Expi3nze 4th Collection/MONSTER (BIGBANG)/MONSTER.sm;
#HASMUSIC:1;
#HASBANNER:1;
#MUSICLENGTH:173.763;
// end cache tags

//---------------dance-single - ----------------
#NOTES:
     dance-single:
     :
     Hard:
     14:
     0.843,0.857,1.000,0.276,0.153,578.000,311.000,48.000,0.000,98.000:
0000
0000
0000
0000
,
0000
0000
0000
0000
0000
0000
0000
0000
0010
0001
0010
0100
1000
0010
0100
0010
,
0100
0010
0001
1000
0101
1000
0010
0100
1000
0010
0100
0010
0001
0010
1000
0100
,
0010
0001
0010
0001
2000
0000
0200
0000
3302
0000
1003
0100
0001
0010
0001
1000
,
0100
0010
0001
0100
1010
0001
0010
0100
1000
0010
0100
0010
1000
0010
0100
0010
,
1000
0100
0010
0001
0200
0000
0000
0000
0311
0000
0011
0000
1000
0000
0100
0000
,
1010
0101
0010
0001
1100
1100
0001
0010
,
1100
1100
0001
0010
1001
1100
0010
0001
,
1100
0011
0100
1000
0110
1001
0010
0100
,
1001
1001
0010
0001
1100
1100
0001
0010
,
1001
1100
0010
0001
1100
1100
0001
1000
,
0011
0011
0100
0001
0000
0000
0000
0000
,
1000
0011
0011
1100
0110
0011
1100
0110
,
0011
0000
0110
0000
1100
0000
0101
0000
0101
0000
0000
0010
1100
0000
0010
0000
,
0001
1100
0101
1100
0101
0011
0011
0110
,
1100
0000
0101
0000
0101
0000
1100
0000
0110
0000
0001
0100
1001
0000
0001
0000
,
1000
0000
1010
0000
0011
0000
0110
0000
1100
0001
0010
0001
1010
0000
0101
0000
,
1100
0000
1100
0000
0001
0000
1000
0100
0011
0100
0001
0000
1010
0000
1000
1000
,
0011
0000
0100
0010
1001
0000
1100
0001
1100
0000
0100
0100
0011
0000
1001
0000
,
0101
0000
0001
0100
0011
0000
1010
0001
1010
0000
0011
0000
0110
0000
1100
0000
,
1010
0001
1110
1000
0011
1000
1110
0001
,
1010
0001
0111
1000
1100
0010
1101
0010
,
1001
0010
1101
0010
1100
0001
0111
1000
,
1010
0001
1110
0001
1100
0001
1110
0001
,
0110
0001
1011
0100
0011
1000
0111
1000
,
0101
0010
1101
0010
0101
1000
0111
1000
,
0011
1000
0111
1000
0011
1000
1110
0001
,
2100
0000
0000
0000
,
3020
0000
0132
0000
0203
0000
1311
1100
,
0001
1100
1101
1000
1010
0001
1110
0011
,
0100
1000
0111
0110
0110
0001
1110
0011
,
1000
0101
1011
1010
2001
0000
3111
1100
,
0001
0011
1101
1100
1020
0000
1131
1100
,
0001
0101
1110
0011
1100
0001
1101
1010
,
1000
0011
1011
1001
2100
0010
3111
1010
,
1101
1101
0111
0001
1110
1110
1011
0000
,
2000
0000
3012
0000
0023
0000
1131
1100
,
0001
0101
0111
1000
0011
1000
1110
1001
,
0010
1001
1011
1000
0011
1000
1110
0011
,
0010
1001
1101
0011
0201
0000
1311
1001
,
0010
1001
1011
1010
0011
1100
1110
1100
,
0001
1100
1101
0011
1010
1000
0111
0110
,
0001
1010
1011
0011
1200
0001
1311
1010
,
0111
0000
0111
0000
0000
0000
0000
0000
1110
0000
1110
0000
0010
0001
0010
1000
,
0100
0001
0100
0010
0001
0000
0000
0000
0000
0000
0110
0000
0100
0010
0001
1000
,
0100
1000
0001
0010
0100
0000
0000
0000
0000
0000
1100
0000
0000
0000
2000
0000
,
0200
0001
3300
0011
0002
0000
0000
0000
0000
0000
0000
0000
1003
0100
0010
0000
,
1000
0001
0000
0010
0200
0000
0011
0000
0010
0001
0010
0000
0301
0000
0010
0000
,
1100
1100
0001
0010
0101
1010
0100
1000
,
0011
0011
1000
0010
0110
0110
0001
1000
,
0101
0101
1000
0001
1100
1100
0010
0001
,
1100
1100
0001
0010
1001
1001
0010
0001
,
1100
0011
0100
1000
0011
0011
1000
0100
,
1010
0101
0010
0001
1100
1100
0001
0010
,
0101
1010
0100
1000
0011
0011
1000
0000
,
1010
0100
0100
0000
,
0000
0000
2222
0000
,
0000
0000
0000
0000
0000
0000
0000
3333
,
0020
0000
0132
0000
0203
0000
1311
1100
,
0001
1100
1101
1000
1010
0001
1110
0011
,
0100
1000
0111
0110
0110
0001
1110
0011
,
1000
0101
1011
1010
2001
0000
3111
1100
,
0001
0011
1101
1100
1020
0000
1131
1100
,
0001
0101
1110
0011
1100
0001
1101
1010
,
1000
0011
1011
1001
2100
0010
3111
1010
,
1101
1101
0111
0001
1110
1110
1011
0000
,
2000
0000
3012
0000
0023
0000
1131
1100
,
0001
0101
0111
1000
0011
1000
1110
1001
,
0010
1001
1011
1000
0011
1000
1110
0011
,
0010
1001
1101
0011
0201
0000
1311
1001
,
0010
1001
1011
1010
0011
1100
1110
1100
,
0001
1100
1101
0011
1010
1000
0111
0110
,
0001
1010
1011
0011
1200
0001
1311
1010
,
0111
0111
0000
0000
1110
1110
0000
0000
,
0200
0000
0000
0020
,
2331
0001
0000
0000
3011
0012
0000
0000
,
0200
0000
0003
0000
0320
0000
2030
0200
,
3302
0000
2003
0000
,
3020
0000
0030
0000
,
0020
0000
0030
0000
,
0020
0000
0030
0000
,
0000
0000
0000
0000
,
0000
0000
0000
0000
,
0000
0000
0000
0000
,
0000
0000
0000
0000
,
0000
0000
0000
0000
,
0000
0000
0000
0000
,
0000
0000
0000
0000
,
0000
0000
0000
0000
,
0000
0000
0000
0000
,
0000
0000
0000
0000
,
0000
0000
0000
0000
,
0000
0000
0000
0000
;
